Details for this torrent 

Second.In.Command.2006.1080p.BluRay.H264.AC3.DD5.1.Will1
Type:
Video > Movies
Files:
4
Size:
3.05 GiB (3280219561 Bytes)
Uploaded:
2020-06-07 00:59 GMT
By:
TvTeam
Seeders:
1
Leechers:
7

Info Hash:
1F683DBC05AA4035309BD917717F41941D2938CA




~~~~~~~~~~~~~~~~~~~~~~~~~~~~~~~~~~~~~~~~~~~~~~~~~~~~~~~~~~~~~~~~~~~~~~~~~~~~~~~~~~~

Torrent downloaded from  https://www.torrenting.me

~~~~~~~~~~~~~~~~~~~~~~~~~~~~~~~~~~~~~~~~~~~~~~~~~~~~~~~~~~~~~~~~~~~~~~~~~~~~~~~~~~~

Torrenting.me is a safe and virus free torrent site with SUPER FAST DOWNLOAD SPEED ! ! !

~~~~~~~~~~~~~~~~~~~~~~~~~~~~~~~~~~~~~~~~~~~~~~~~~~~~~~~~~~~~~~~~~~~~~~~~~~~~~~~~~~~
.
.General
Complete name                            : D:\Video\Second.In.Command.2006.1080p.BluRay.H264.AC3.DD5.1.Will1869\Second.In.Command.2006.1080p.BluRay.H264.AC3.DD5.1.Will1869.mp4
Format                                   : MPEG-4
Format profile                           : Base Media / Version 2
Codec ID                                 : mp42 (mp42/isom/avc1)
File size                                : 3.01 GiB
Duration                                 : 1 h 31 min
Overall bit rate mode                    : Variable
Overall bit rate                         : 4 706 kb/s
Movie name                               : Second.In.Command.2006.1080p.BluRay.H264.AC3.DD5.1.Will1869
Encoded date                             : UTC 2020-06-06 10:40:39
Tagged date                              : UTC 2020-06-06 10:51:49
Writing application                      : DVDFab 11.0.4.2
Cover                                    : Yes

Video
ID                                       : 1
Format                                   : AVC
Format/Info                              : Advanced Video Codec
Format profile                           : 
Format settings                          : CABAC / 2 Ref Frames
Format settings, CABAC                   : Yes
Format settings, Reference frames        : 2 frames
Format settings, GOP                     : M=1, N=24
Codec ID                                 : avc1
Codec ID/Info                            : Advanced Video Coding
Duration                                 : 1 h 31 min
Bit rate mode                            : Variable
Bit rate                                 : 4 256 kb/s
Maximum bit rate                         : 6 535 kb/s
Width                                    : 1 920 pixels
Height                                   : 1 040 pixels
Display aspect ratio                     : 1.85:1
Frame rate mode                          : Constant
Frame rate                               : 23.976 (24000/1001) FPS
Color space                              : YUV
Chroma subsampling                       : 4:2:0
Bit depth                                : 8 bits
Scan type                                : Progressive
Bits/(Pixel*Frame)                       : 0.089
Stream size                              : 2.73 GiB (90%)
Encoded date                             : UTC 2020-06-06 10:40:39
Tagged date                              : UTC 2020-06-06 10:51:49
Color primaries                          : BT.709
Transfer characteristics                 : BT.709
Matrix coefficients                      : BT.709
Codec configuration box                  : avcC

Audio
ID                                       : 2
Format                                   : AC-3
Format/Info                              : Audio Coding 3
Commercial name                          : Dolby Digital
Codec ID                                 : ac-3
Duration                                 : 1 h 31 min
Bit rate mode                            : Constant
Bit rate                                 : 448 kb/s
Channel(s)                               : 6 channels
Channel layout                           : L R C LFE Ls Rs
Sampling rate                            : 48.0 kHz
Frame rate                               : 31.250 FPS (1536 SPF)
Compression mode                         : Lossy
Stream size                              : 294 MiB (10%)
Title                                    : Undetermined (ac3 5.1)
Service kind                             : Complete Main
Default                                  : Yes
Alternate group                          : 1
Encoded date                             : UTC 2020-06-06 10:40:39
Tagged date                              : UTC 2020-06-06 10:51:49