Details for this torrent 

The.Bad.Guys.2022.2160p.WEB-DL.x265.10bit.SDR.DDP5.1.Atmos-NoWhe
Type:
Video > HD - Movies
Files:
3
Size:
15 GiB (16107901124 Bytes)
Uploaded:
2022-06-23 01:08 GMT
By:
GoodFilms
Seeders:
3
Leechers:
7

Info Hash:
294B911B43AA2D12CC4A8E283B73840E2AFB4DF3




The.Bad.Guys.2022.2160p.WEB-DL.x265.10bit.SDR.DDP5.1.Atmos-NoWhere

/user/GoodFilms

/user/FiNEHD

Video
ID : 1
Format : HEVC
Format/Info : High Efficiency Video Coding
Format profile : Main @High
Codec ID : V_MPEGH/ISO/HEVC
Duration : 1 h 40 min
Bit rate : 20.7 Mb/s
Width : 3 840 pixels
Height : 1 604 pixels
Display aspect ratio : 2.40:1
Frame rate mode : Constant
Frame rate : 23.976 FPS
Color space : YUV
Chroma subsampling : 4:2:0
Bit depth : 10 bits
Bits/(Pixel*Frame) : 0.140
Stream size : 14.5 GiB (96%)
Default : Yes
Forced : No
Color range : Limited
Color primaries : BT.709
Transfer characteristics : BT.709
Matrix coefficients : BT.709

Audio
ID : 2
Format : E-AC-3 JOC
Format/Info : Enhanced AC-3 with Joint Object Coding
Commercial name : Dolby Digital Plus with Dolby Atmos
Codec ID : A_EAC3
Duration : 1 h 40 min
Bit rate mode : Constant
Bit rate : 768 kb/s
Channel(s) : 6 channels
Channel layout : L R C LFE Ls Rs
Sampling rate : 48.0 kHz
Frame rate : 31.250 FPS (1536 SPF)
Compression mode : Lossy
Stream size : 550 MiB (4%)
Language : English
Service kind : Complete Main
Default : Yes
Forced : No
Complexity index : 16
Number of dynamic objects : 15
Bed channel count : 1 channel
Bed channel configuration : LFE

Text #1
ID : 3
Format : UTF-8
Codec ID : S_TEXT/UTF8
Codec ID/Info : UTF-8 Plain Text
Duration : 1 h 39 min
Bit rate : 90 b/s
Count of elements : 2288
Stream size : 66.4 KiB (0%)
Title : English CC
Language : English
Default : No
Forced : No

Text #2
ID : 4
Format : UTF-8
Codec ID : S_TEXT/UTF8
Codec ID/Info : UTF-8 Plain Text
Duration : 1 h 39 min
Bit rate : 84 b/s
Count of elements : 2002
Stream size : 61.8 KiB (0%)
Title : English SDH
Language : English
Default : No
Forced : No

Text #3
ID : 5
Format : UTF-8
Codec ID : S_TEXT/UTF8
Codec ID/Info : UTF-8 Plain Text
Duration : 1 h 39 min
Bit rate : 70 b/s
Count of elements : 1659
Stream size : 51.0 KiB (0%)
Title : German
Language : German
Default : No
Forced : No

Text #4
ID : 6
Format : UTF-8
Codec ID : S_TEXT/UTF8
Codec ID/Info : UTF-8 Plain Text
Duration : 1 h 39 min
Bit rate : 71 b/s
Count of elements : 1688
Stream size : 52.0 KiB (0%)
Title : Spanish Latin American
Language : Spanish
Default : No
Forced : No

Text #5
ID : 7
Format : UTF-8
Codec ID : S_TEXT/UTF8
Codec ID/Info : UTF-8 Plain Text
Duration : 1 h 39 min
Bit rate : 73 b/s
Count of elements : 1696
Stream size : 53.4 KiB (0%)
Title : Portuguese Brazilian
Language : Portuguese
Default : No
Forced : No

Menu
00:00:00.000 : en:Chapter 01
00:06:10.036 : en:Chapter 02
00:14:10.225 : en:Chapter 03
00:19:38.053 : en:Chapter 04
00:24:26.257 : en:Chapter 05
00:30:49.891 : en:Chapter 06
00:37:09.729 : en:Chapter 07
00:41:27.779 : en:Chapter 08
00:49:20.960 : en:Chapter 09
00:55:02.093 : en:Chapter 10
00:59:07.714 : en:Chapter 11
01:06:22.232 : en:Chapter 12
01:12:43.655 : en:Chapter 13
01:17:43.496 : en:Chapter 14
01:25:08.858 : en:Chapter 15
01:30:57.582 : en:Chapter 16